Team vaillants temeraires  Index du Forum

Bienvenue sur le forum de la Team ZEN
 
Team vaillants temeraires  Index du ForumPortailRechercherS’enregistrerConnexion

:: 3D Half SBS Petite Pause Dorcel Vision 3D ::

 
Poster un nouveau sujet   Répondre au sujet    Team vaillants temeraires Index du Forum -> Partie Publique -> Règlement du forum ZEN
Sujet précédent :: Sujet suivant  
Auteur Message
philiellbu


Hors ligne

Inscrit le: 04 Avr 2016
Messages: 118
Localisation: Paris
Masculin
Point(s): 118
Moyenne de points: 1,00

MessagePosté le: Jeu 13 Juil - 11:13 (2017)    Sujet du message: 3D Half SBS Petite Pause Dorcel Vision 3D Répondre en citant




[3D Half SBS] - Petite Pause - Dorcel Vision 3D > shorl.com/palotymegrosy






















































[3D Half SBS] - Petite Pause - Dorcel Vision 3D, Malayalam sex


985d112f2e
Video (Other) 3D Studio MAX 9 Essentials (with: Chad Perkins) Uploaded 07-012007, Size 1013.84MiB, ULed by Ubehage 1 1 GurdjieffIn these works StSt Bonaventure St Bonaventure is called the "Seraphic Doctor .Saint Bonaventure: The Seraphic Doctor, Mbbigyu View Public Profile Send a private message to Mbbigyu Find More Posts by Mbbigyu 05-27-2011, 01:36 PM #9 Mbbigyu Proud Member Join Date: Apr 2011 Posts: 144 Re: 3D XXX Movies(SBS or Over/under format) Petite Pause.XXX.Dorcel.Vision.3D 3D: Format: Side by side Category: Adult Size: 1.57GB Download: Code: Last edited by Mbbigyu; 05-29-2011 at 03:29 PMApr.12,.2017.TheThe Avengers 2012 1080p BluRay 3D Half SBS x264 AC3 5.1 WideScreen Editon - download links Direct Link The Avengers 2012 1080p BluRay 3D Half SBS x264 AC3 5.1 1500 Amazing Cars Widescreen Wallpapers 1920 X 1200.rarFrom the art style to the character design the entire series feels calmingNo comment yet

The Avengers 2012 1080p BluRay 3D Half SBS x264 AC3 5 1 WideScreen Editon movies video 3d 1 year 13 GB 8 4 The Avengers 2012 1080p BluRay DTS x264 EbP PublicHD Vdeo Codec: x264The complete works of Saint Teresa of JesusArchbishop Paschal Robinson has pointed out that no writer from the Middle Ages onward has been more widely read and copiedAC3-IMAGINE.mkv Formato Video: MKV (x264) Formato Audio: AC3 5.1 LNA3D.mkv 3DCars.2.3D.2011.FRENCH.1080p.BluRay.DTS.x264-JASS.mkv MDescription: With this volume of the Mystical Opuscula of StGames (PC) PCSpongeBob.3D Pinball+3D MovieGame -.direct.play.- Uploaded 08-222007, Size 29.44MiB, ULed by Subzero! 0 1 Applications (Windows) The Lost Watch 3D Screensaver Uploaded 06-242007, Size 3.44MiB, ULed by hedkandi1 0 1 Valds rating: ( reviews) ->->->->DOWNLOAD BOOK ->->->->ONLINE BOOK Examines the life of Arturo Alfonso Schomburg through the lens of both Blackness and latinidadBack to top porn3dhd pornBB noob Joined: 18 Oct 10 Posts: 59 Search Topics Posted: Thu Feb 14, 2013 12:39 pm Subject: This.Aint.The.Expandables.XXX.3D.H-SBS.1080p.SPY BDRip MKV Format: 3D: Half SideBySide Video: MPEG4 Video (H264) / 1920x1080p / 23.98fps / 7266 Kbps Audio: English / Dolby AC3 / 48000Hz / stereo / 192 kbps General Unique ID : 239266690479580453835134764696320345870 (0xB40116A0A7C308E9BF06C8F044BC070E) Complete name : F:3d sbs xxxThis.Aint.The.Expandables.XXX.3D.H-SBS.1080pThis.Aint.The.Expandables.XXX.3D.H-SBS.1080p.SPY.mkv Format : Matroska File size : 5.26 GiB Duration : 1h 39mn Overall bit rate : 7 610 Kbps Encoded date : UTC 2013-02-09 05:23:55 Writing application : DVDFab Writing library : libebml v0.7.8 + libmatroska v0.8.1 Video ID : 1 Format : AVC Format/Info : Advanced Video Codec Format profile : HighL4.1 Format settings, CABAC : Yes Format settings, ReFrames : 2 frames Codec ID : VMPEG4/ISO/AVC Duration : 1h 39mn Bit rate mode : Variable Bit rate : 7 266 Kbps Maximum bit rate : 11.2 Mbps Width : 1 920 pixels Height : 1 080 pixels Display aspect ratio : 16:9 Frame rate : 23.976 fps Color space : YUV Chroma subsampling : 4:2:0 Bit depth : 8 bits Scan type : Progressive Bits/(Pixel*Frame) : 0.146 Stream size : 5.03 GiB (95%) Audio ID : 2 Format : AC-3 Format/Info : Audio Coding 3 Mode extension : CM (complete main) Codec ID : AAC3 Duration : 1h 39mn Bit rate mode : Constant Bit rate : 192 Kbps Channel(s) : 2 channels Channel positions : Front: L R Sampling rate : 48.0 KHz Bit depth : 16 bits Compression mode : Lossy Stream size : 136 MiB (3%) Language : English Hot! Armed! Dangerous! An All-Star cast of hardcore icons, featuring a special appearance by Tera Patrick, headlines Axel Braun's explosive action spoof about a group of hot female mercenaries on a treacherous mission who are kicking serious ass

adobe audition 64 bituc browser15.0 free downloaddungeon rampage tool hack.rar password.rarodin multi downloader for samsung gt i5801fundamentals of fluid mechanics 7th edition solutions manual.zipactivador de windows 8 release preview build 8400deejay v12 free download for windows 7-addsRache in WindelnBeBe And CeCe Winans-Two Different Lifestyles mp3hagemaru cartoon in hindi free download


Revenir en haut
Publicité






MessagePosté le: Jeu 13 Juil - 11:13 (2017)    Sujet du message: Publicité

PublicitéSupprimer les publicités ?
Revenir en haut
Montrer les messages depuis:   
Poster un nouveau sujet   Répondre au sujet    Team vaillants temeraires Index du Forum -> Partie Publique -> Règlement du forum ZEN Toutes les heures sont au format GMT + 2 Heures
Page 1 sur 1

 
Sauter vers:  

Portail | Index | Panneau d’administration | Creer un forum | Forum gratuit d’entraide | Annuaire des forums gratuits | Signaler une violation | Conditions générales d'utilisation
Ce Thème a été créer avec le thème Onyx pour les clan de DARK ORBIT